[Login] or [Signup]
Login
Username:
Password:
[Signup]
[Recover Account]


Poll


You must be logged in to view polls



Torrent Details For "Bawali Unlimited (Bengali Movie) - 2CD - HDRip[[x264 - AAC3(5.1Ch)]"

Bawali Unlimited (Bengali Movie) - 2CD - HDRip[[x264 - AAC3(5.1Ch)]

Download this torrent | Magnet Download
Health:
Seeds: 79
Leechers: 136
Completed: 55 
Last Checked: 14-09-2018 10:38:39
External Torrent
Update Stats
Download Magnet


Poster


iMDB
Title: Bawali Unlimited
Year: 2012
Runtime: 110 minutes
Language: Bengali
All Genres: Comedy, Drama, Romance
Director: Sujit Mondal
Writing By: Sujit Mondal,Sujit Mondal,
Produced By: Pankaj Agrawal,
Music: Souvik Gupta
Cast:
Payel Sarkar as
Joy Mukherjee as
Sourav Nandy as
Kamalika Banerjee as
Parthasarathi Chakraborty as
Sabyasachi Chakraborty as
Sayak Chakraborty as
Dev as Jay
Rajatabha Dutta as
Supriyo Dutta as Pappu's Father


Watch-Free-HD     Download

Details
Name:Bawali Unlimited (Bengali Movie) - 2CD - HDRip[[x264 - AAC3(5.1Ch)]
Description:
    Bawali Unlimited (Bengali Movie) - 2CD -
HDRip[[x264 - AAC3(5.1Ch)]  
 







[code]
General
Format                                   : Matroska
Format version                           : Version 4
File size                                : 1.40 GiB
Duration                                 : 2 h 40 min

Video
ID                                       : 1
Format                                   : AVC
Format/Info                              : Advanced Video Codec
Format profile                           : [email protected]
Format settings                          : CABAC / 4 Ref Frames
Format settings, CABAC                   : Yes
Format settings, RefFrames               : 4 frames
Codec ID                                 : V_MPEG4/ISO/AVC
Duration                                 : 2 h 40 min
Bit rate                                 : 1 123 kb/s
Width                                    : 640 pixels
Height                                   : 272 pixels
Display aspect ratio                     : 2.35:1
Frame rate mode                          : Constant
Frame rate                               : 25.000 FPS
Color space                              : YUV
Chroma subsampling                       : 4:2:0
Bit depth                                : 8 bits
Scan type                                : Progressive
Bits/(Pixel*Frame)                       : 0.258
Stream size                              : 1.26 GiB (90%)


Audio
ID                                       : 2
Format                                   : AAC LC SBR
Commercial name                          : HE-AAC
Format settings                          : Explicit
Codec ID                                 : A_AAC-2
Duration                                 : 2 h 40 min
Bit rate                                 : 128 kb/s
Channel(s)                               : 6 channels
Channel layout                           : C L R Ls Rs LFE
Sampling rate                            : 48.0 kHz
Stream size                              : 146 MiB (10%)
[/code]



Thumbnail




Category:Movies > Bengali
Lang:Bengali  Bengali
Total Size:1.40 GB
Info Hash:cb07710abdb40de60ffbb2d80dc266938c1d8e2a
Added By:CyberTron
Date Added:13-09-2018 17:14:57
Views:338
Hits:31

Download Torrent

Ratings:Not Yet Rated (Log in to rate it)

  


Tracker:
udp://tracker.trackerfix.com:80/announce


File List: 


Comments

No comments still posted

Powered by 10 Hamsters v2-svn -|- Page Generated In 0.739961 secs.
-|- RSS FEED
Theme By: Nikkbu